User:      Haso:     



User Info
User:
Haso:
Stwrz kontoOdzyskiwanie hasa


Kategorie

Seriale

Anime

Dla Dzieci

Muzyka

Gry

GSM/PDA

Ksiazki

Programy

Inne



Gomorra S03E06 [1080p HDTV H 264 DD5 1] [Napisy PL]


Kategoria: Seriale Zagraniczne


Doda:  Morus12
Data dodania: 
13-12-2017
Rozmiar: 2.14 GB

Seedw: 53
Peerw: 21
Ukoczone: 211

Pobrany: 5

Kondycja:

Pobierz

Info:
produkcja: Wochy
gatunek: Krymina, Dramat
scenariusz: Roberto Saviano, Stephen Bises, Leonardo Fasoli
reyseria: Claudio Cupellini
zdjcia: Paolo Carnera
muzyka: Mokadelic
czas trwania: ok. 48 min.
Opis:
Gomorra - serial zrealizowany na podstawie bestselleru woskiego dziennikarza Roberta Saviano. Seria o neapolitaskiej organizacji mafijnej Camorra, zabiera widzw do ciemnych zaukw Neapolu, swoistego sanktuarium przestpczoci zorganizowanej.
Obsada:
Marco D'Amore - Ciro di Marzio
Salvatore Esposito - Genny Savastano
Fortunato Cerlino - Pietro Savastano
Fabio De Caro - Malammore
Christian Giroso - O' Cardillo
Giovanni Buselli - Capastorta
Cristina Donadio - Annalisa 'Scianel' Magliocca
Cristiana Dell'Anna - Patrizia
Ivana Lotito - Azzurra Avitabile
Francesco Verde - Domenico
Antonio Ciccone - A Lince
Giovanni Rienzo - O' Puledro
Gianni Spezzano - Fernando
Dane techniczne:
Format : Matroska
Format version : Version 4 / Version 2
File size : 2.14 GiB
Duration : 48 min 13 s
Overall bit rate : 6 347 kb/s
Encoded date : UTC 2017-12-12 13:04:35
Video
ID : 1
Format : AVC
Format/Info : Advanced Video Codec
Format profile : [email protected]
Format settings, CABAC : Yes
Format settings, RefFrames : 4 frames
Codec ID : V_MPEG4/ISO/AVC
Duration : 48 min 13 s
Bit rate : 5 962 kb/s
Width : 1 920 pixels
Height : 1 040 pixels
Display aspect ratio : 1.85:1
Frame rate mode : Constant
Frame rate : 25.000 FPS
Color space : YUV
Chroma subsampling : 4:2:0
Bit depth : 8 bits
Scan type : Progressive
Bits/(Pixel*Frame) : 0.119
Stream size : 2.01 GiB (94%)
Writing library : x264 core 152
Audio
ID : 2
Format : AC-3
Format/Info : Audio Coding 3
Format settings, Endianness : Big
Codec ID : A_AC3
Duration : 48 min 13 s
Bit rate mode : Constant
Bit rate : 384 kb/s
Channel(s) : 6 channels
Channel positions : Front: L C R, Side: L R, LFE
Sampling rate : 48.0 kHz
Frame rate : 31.250 FPS (1536 SPF)
Bit depth : 16 bits
Compression mode : Lossy
Delay relative to video : 100 ms
Stream size : 132 MiB (6%)
Language : Italian
Service kind : Complete Main
Text
ID : 3
Format : UTF-8
Codec ID : S_TEXT/UTF8
Codec ID/Info : UTF-8 Plain Text
Duration : 43 min 15 s
Bit rate : 29 b/s
Count of elements : 285
Stream size : 9.40 KiB (0%)
Language : Polish
Pliki
 [Poka/ukryj Pliki]
(2) files
Ocena N/A
Tracker
 [Poka/ukryj Trackery] 
Podobne
Nie znaleziono podobnych tytuw!


Komentarze


Brak Komentarzy!!!